Code to run on server side. ffmpeg -re -thread_queue_size 4 -i source_video_file.mp4 -strict -2 -vcodec copy -an -f rtp rtp://10.0.0.2:6005 -acodec copy -vn -sdp_file saved_sdp_file -f rtp rtp://10.0.0.2:7005. After running this code, an SDP file should be generated named saved_sdp_file.

Video Decoder by ffmpeg, Solve the problem that the rtsp stream will receive some invalid frame when network is unstable. ffmpeg video-decoding rtsp-stream gpu-decoder Updated Dec 10, 2018

Vortex for crf450l
Florida lottery office gainesville florida
Cpu stability test
Paypal cash card atm withdrawal
Jun 30, 2016 · Visit the post for more. Next Post How to Record the Sound Coming From Your PC (Even Without Stereo Mix) multiple core dumps on bogus rtp input. How to reproduce: run ffmpeg on udp mpegts stream with rtp:// url (which is of course incorrect), ffmpeg reports multitude of errors and sometimes crashes. /usr/local/bin/ffmpeg -ss 1 -i rtp://@224..94.27:1234 -t 30 -f avi -c copy file.avi gdb info is attached.
Nov 10, 2017 · ffmpeg -re -i out.wav -f rtp rtp://224.224.224.224:21414/live.sdp. You can also use the source file if you want: ffmpeg -re -i in.mp3 -acodec pcm_mulaw -b:a 64 -ac 1 -ar 8000 -f rtp rtp://224.224.224.224:21414/live.sdp. FFmpeg is nice in that it dumps the SDP information for the RTP stream to the command prompt even though no SDP file is created: v=0 FFmpeg has added a realtime bright flash removal filter to libavfilter. Note that this filter is not FDA approved, nor are we medical professionals. Nor has this filter been tested with anyone who has photosensitive epilepsy. FFmpeg and its photosensitivity filter are not making any medical claims.
Apr 18, 2018 · Since FFmpeg does support plain RTP as an input format (using an SDP description to bind on the right ports and specify the audio/video codecs in use), this was the best way to feed it with the WebRTC media streams! Power automate utcnow
[mjpeg @ 0x3718b30] bitrate tolerance 4000000 too small for bitrate 200000, overriding Output #0, image2, to 'img%03d.jpg': Metadata: title : RTSP/RTP stream from anjvision ipcamera encoder : Lavf58.38.101 Stream #0:0: Video: mjpeg, yuvj420p(pc), 1280x720, q=2-31, 200 kb/s, 0.02 fps, 0.02 tbn, 0.02 tbc Metadata: encoder : Lavc58.71.100 mjpeg ... Jun 30, 2016 · Visit the post for more. Next Post How to Record the Sound Coming From Your PC (Even Without Stereo Mix)
Now that FFmpeg is sending RTP, we can start a receiver application that gets the stream and shows the video, by using any media player that is compatible with SDP files. This proves that our RTP streaming is working fine. We'll show how you can open the RTP stream with three tools: FFmpeg, GStreamer, and VLC.True, it's typically used with RTP to do the "real time streaming" part, but then this disadvantage is more appropriate with RTP. By the way, RTSP CAN be used to download files using http or ftp. You just ask the server for a describe, and get an SDP file back, which tells the location of a http or ftp server (I'm quite sure SDP allows this).
multiple core dumps on bogus rtp input. How to reproduce: run ffmpeg on udp mpegts stream with rtp:// url (which is of course incorrect), ffmpeg reports multitude of errors and sometimes crashes. /usr/local/bin/ffmpeg -ss 1 -i rtp://@224.0.94.27:1234 -t 30 -f avi -c copy file.avi gdb info is attached. Jul 11, 2011 · I think that, for an Internet Streaming professional, this has become one of the most important feature of FFmpeg. Before, if you wanted to acquire streams or push streams to a server in live mode you needed to use the RTP/RTSP protocol, but it is too complex and the implementation not really stable.
00007fc078000fa8] stream_out_rtp stream out debug: sdp= v=0 o=- 15916442759346664710 15916442759346664710 IN IP4 localhost s=Unnamed i=N/A c=IN IP4 224.0.0.8/255 Index: ffmpeg-svn/libavformat/rtp_asf.c ===== --- ffmpeg-svn.orig/libavformat/rtp_asf.c 2009-02-01 09:14:08.000000000 -0500 +++ ffmpeg-svn/libavformat/rtp_asf.c 2009 ...
Jul 15, 2015 · Re: directshow stereomix stream rtp Post by halomadei » Thu Jul 16, 2015 8:56 pm Thanks for the suggestion, I appreciate it, but in the mean I've set up an alternative using ffmpeg on the windows server and vlc on the receiver. Video is captured in opencv by VideoCapture cap.open("UDP://127.0.0.1:5000"). The opencv installed with GStreamer by VideoWriter stream("send video to 127.0.0.1:5010"). The video is captured back in windows by ffmpeg where the source is RTP:127.0.0.5010 into MyOutput.mp4. This is the whole pipeline. You can capture stream produced from Opencv on Web.
Rtp H264 ... Rtp H264 decode G722 rtp stream in wireshark. edit. asked 2018-01-30 16:57:45 +0000. king man 1 ...
Video Decoder by ffmpeg, Solve the problem that the rtsp stream will receive some invalid frame when network is unstable. ffmpeg video-decoding rtsp-stream gpu-decoder Updated Dec 10, 2018 This can only be used to stream MPEG-TS over plain RTP. Support for this option has been removed in VLC 0.9.0 and later. You should use the rtp stream output module instead. (same as for the udp setting) shout: sends the stream to a Shoutcast (or Icecast) server. mp3=1: required if your input file uses MP3 audio.
Now that FFmpeg is sending RTP, we can start a receiver application that gets the stream and shows the video, by using any media player that is compatible with SDP files. This proves that our RTP streaming is working fine. We'll show how you can open the RTP stream with three tools: FFmpeg, GStreamer, and VLC.FFmpeg cannot be installed on Shared or Reseller packages, and is not recommended for use on VPS accounts. HostGator only offers installation services for FFmpeg on Dedicated Servers.
FFmpeg on the command line can access the stream. EmguCV also uses ffmpeg as a backend which is why I am very confused as to why it can't open the rtsp URL. Here is an image of the module tree when VLCPlayer opens the rtsp stream:. From my understanding, EmguCV doesn't use live555 or avcodec.. Jan 17, 2019 · What is the best/most common GUI for ffmpeg encoding? I've tried WinFF - good presets, batch convert, multi threaded. ... I suppose an rtp/rtsp server or similar ...
Tweet Tweetこの記事は Magic Leap Advent Calendar 2020 の22日目の記事です。自称日本で10人に入るMagicLeapのC使いとして、今日ももりもり Native Plugin … 続きを読む MagicLeapにRTPで映像を送ってnative buildしたffmpegとOpenCVで画像を取り出して遊びたかった RTP streaming with ffmpeg Since I often receive private emails asking details about RTP streaming with ffmpeg, I decided to write down some notes about it. So, first of all, yes, ffmpeg can stream audio and video over RTP. And, as far as I know, there are no major issues with this feature...
Nov 02, 2012 · Streaming WebM to display in browser with HTML5 is currently quite problematic - none of the well-known streaming servers support WebM at the moment. Current popular options are either Java-based stream-m and experimental 2.4-beta release of Icecast. Lesser known option is to use FFmpegs FFserver to stream WebM video. For this to work you need a decently current FFmpeg release (this article ... I'm trying to use ffmpeg to receive an h264 stream over RTSP and forward that stream as a muliticast rtp stream. I can receive the stream, and output it as a multicast rtp stream using the following command:
In RTP all H264 I-Frames (IDRs) are usualy fragmented. When you receive RTP you first must skip the header (usualy first 12 bytes) and then get to the NAL unit (first payload byte). If the NAL is 28 (1C) then it means that following payload represents one H264 IDR (I-Frame) fragment and that you need to collect all of them to reconstruct H264 ... [Libav-user] FFmpeg RTP payload 96 instead of 97. I want to create an rtp audio stream with ffmpeg. When I run my application I get the following SDP file configuration: Output #0, rtp, to...
Streaming Latency. You may be able to decrease initial "startup" latency by specifing that I-frames come "more frequently" (or... CPU usage / File size. In general, the more CPU you use to compress, the better the output image will be, or the smaller... Streaming a simple RTP audio stream from ... I am ultimately looking to do analysis on some streaming audio, but for now I am just trying to get it to play audio well as a first step. I am generating a MP3 RTP steam on another device (sender) on my network. Using FFMPEG, I pipe that into pytho...
FFmpeg has added a realtime bright flash removal filter to libavfilter. Note that this filter is not FDA approved, nor are we medical professionals. Nor has this filter been tested with anyone who has photosensitive epilepsy. FFmpeg and its photosensitivity filter are not making any medical claims. ffmpeg -re -i SomeVideo.mp4 -vcodec copy -an -f rtp rtp://127.0.0.1:11111 -vn -acodec copy -f rtp rtp://127.0.0.1:11112. Port 11111 puis a vidéo sans audio (-an). Port 11112 puis a audio sans vidéo (-vn). Lire chaque flux avec, par exemple, ffplay rtp://127.0.0.1:11112.
FFmpeg is a complete, cross-platform solution to record, convert and stream audio and video. If is a number 1 Introduction 2 ===== 3 4 The V4L2 control API seems simple enough, bu The structure is registered in the main frame of ffmpeg through the av_register_all function, and the mpegts_probe function is used to detect whether it is in the TS stream format, and then an audio stream and a video stream are found through the mpegts_read_header function (note: not all audio streams are found in this function And video ...
利用FFmpeg实现rtp推流.重点为时间戳转换. ffmpeg生产rtp流. 录像文件转成h264的rtp流,当下主流的流媒体服务器可识别的rtp流: ffmpeg-re -i input -an -f rtp-c:v libx264 -profile baseline -slices 10 -rtpflags h264_mode0 -payload_type 97 -pkt_size 1460 -slice-... 请教关于ffmpeg解码rtp码流的问题 The SDP I feed in is: v=0 o=root 1530041045 1530041045 IN IP4 81.201.82.171 s=session c=IN IP4 127.0.0.1 t=0 0 m=audio 40130 RTP/AVP 107 101 a=rtpmap:107 opus/48000/2 a=rtpmap:101 telephone-event/8000 a=fmtp:107 useinbandfec=1 a=fmtp:101 0-16 a=rtcp:40131 a=ptime:20 a=maxptime:60 a=sendrecv a=silenceSupp:off - - - - The arguments are: -loglevel ...
Decoding: total stream bitrate in bit/s, 0 if not available. Never set it directly if the file_size and the duration are known as FFmpeg can compute it automatically. Definition at line 731 of file avformat.h. Show the stream duration, the codec parameters, the current position in the stream and the audio/video synchronisation drift. -debug Print specific debug info. -bug Work around bugs. -vismv Visualize motion vectors. -fast Non-spec-compliant optimizations. -genpts Generate pts. -rtp_tcp Force RTP/TCP protocol usage instead of RTP/UDP.
ffmpeg rtp VS udp. 程序园. 栏目 ... Native RTP vs MPEG-2 Transport Stream. 2016-10-18 Apache. FFMPEG 解码RTP+h264. 2015-04-23. ffmpeg生产rtp流 ... Jul 14, 2016 · Saving live video stream from the IP camera by openRTSP and FFMpeg To watch the view of any IP cameras in VLC player by RTSP protocol we install the VLC player to our Windows desktop and look documentation of IP camera for using RTSP URL syntax.
Media Architect: UVC Driver, h264, rtsp/rtp, ffmpeg, x264, media streaming, LinPhone CyberData Jan 2016 - Dec 2016 1 year. Monterey, CA Develop the low latency Linux UVC (v 1.5) kernel driver for ... RTP- und RTSP-Streaming-Server für Audio- und Video-Übertragungen (auch live) über das Internet. libavcodec enthält alle ffmpeg-Audio- und -Video-Encoder und -Decoder. Alle nativen Codecs wurden von Grund auf neu geschrieben, dazu zählt auch ein H.264 -Decoder.
Jan 24, 2007 · Re: Streaming of AAC through ffmpeg Post by kotao_78 » Wed Dec 19, 2007 6:40 am I don't know how to stream a mp3 file via ffmpeg , but i used to stream a avi file via VLC , it worked fine. FFmpeg is a complete, cross-platform solution to record, convert and stream audio and video. If is a number 1 Introduction 2 ===== 3 4 The V4L2 control API seems simple enough, bu
view-show ffplay -protocol_whitelist "file,http,https,rtp,udp,tcp,tls" test.sdp view-show cat test.sdp m=video 6665 RTP/AVP 96 a=rtpmap:96 H264/90000 c=IN IP4 0.0.0.0 分析ffmpeg原代码,在rtpdec.c代码文件中,这个错误的原因是ffplay接收RTP视频流时,如果前一个RTP包的流水号大于后一个帧时,会将当前RTP ...
Honda 3000 generator for sale craigslist
On3 turbo kit gmc sierra
Maori blessing for the dead
Polk county sheriff iowa office hours
Pc usb wifi adapter

I try to stream live audio using ffmpeg and external USB microphone. I followed this nearly tutorial. I had to adapt some steps but finally, I achieved to receive the stream my laptop using this command : ffmpeg -f oss -i /dev/dsp1 -acodec libmp3lame -ab 32k -ac 1 -re -f rtp rtp://192.168.28.116:1234 Jun 05, 2017 · ffmpeg-i input.webm -c:a copy -c:v vp9 -r 30 output.mkv. This creates a new Matroska with the audio stream copied over and the video stream's frame rate forced to 30 frames per second, instead of using the frame rate from the input (-r 30). You can also adjust the dimensions of your video using FFmpeg. ffmpeg: ffdec_h264: FFmpeg H.264 / AVC / MPEG-4 AVC / MPEG-4 part 10 decoder ffmpeg: ffmux_ipod: FFmpeg iPod H.264 MP4 format muxer rtp: rtph264depay: RTP H264 depayloader rtp: rtph264pay: RTP H264 payloader x264: x264enc: x264enc videoparsersbad: h264parse: H.264 parser Streaming Latency. You may be able to decrease initial "startup" latency by specifing that I-frames come "more frequently" (or... CPU usage / File size. In general, the more CPU you use to compress, the better the output image will be, or the smaller... Streaming a simple RTP audio stream from ... In this article I try to tell the rtp or rtsp based encoder output is streaming over wowza and can be saved with as3 . This can be also used to stream Axis or other security cam over lan . In rtsp based encoder there is no problem to stream it over wowza , cause wowza is directly supporting the rtsp input and ready to stream it with rtmp .

As you can see to join the multicast group and ffmpeg to start encoding you use "udp://239. One way to get a MPEG-4 Video Elementary Stream file. libav, ffmpeg, multicast/unicast, IGMP, UDP, RTP, TCP/IP, MPEG-TS, H. 2016 · No, vMix cannot send a udp stream nativly. Ffmpeg restream rtsp Ffmpeg restream rtsp. ts -vcodec copy -an -f rtp rtp://10. Dec 25, 2020 · According to ffmpeg logs, it starts working, processes for a while and stops (line 957 of the log file) Sending one stream works without issue I suspect there is something wrong with the stream from mediaasoup Start command: ffmpeg -strict experimental -loglevel debug -protocol_whitelist pipe,udp,rtp -fflags +genpts -flags low_delay -f sdp ... Colleagues, I am trying to stream multicast RTP sound into the network. When I use the following command line on FreeBSD: ffmpeg -i conference.mp3 -acodec copy -f rtp rtp://239.8.8.8:5000 it does work but in a weird way. It spews the whole content of conference.mp3 into the network instantly and exits.

A stream specifier can match several stream, the option is then applied to all of them. E.g. the stream specifier in -b:a 128k matches all audio streams. An empty stream specifier matches all streams, for example -codec copy or -codec: copy would copy all the streams without reencoding. FFmpeg is a complete, cross-platform solution to record, convert and stream audio and video. It includes libavcodec - the leading audio/video codec library. version : - PB-Frame decoding for H.263 - deprecated vhook subsystem removed - deprecated old scaler removed - VQF demuxer - Alpha channel scaler - PCX encoder - RTP packetization of H.263 The source of a stream of RTP packets, identified by a 32-bit numeric SSRC identifier carried in the RTP header so as not to be dependent upon the network address. All packets from a synchronization source form part of the same timing and sequence number space, so a receiver groups packets by synchronization source for playback.

In my experience, setting 'analyzeduration' to 5k for ffmpeg to streaming janus rtp data to rtmp data is ok in most cases. You can have a try. Payload type in your 'rtp_forward' message should match the couterparts in ths sdps. Maybe you should check it. On Mon, Sep 03, 2018 at 02:43:42AM -0700, Xiaowu wrote: Connecting to your Tenvis IP camera* Try the following connection options in iSpy or Agent to connect to your Tenvis IP camera.If an FFMPEG option is available we recommend you try that first as it will often be faster and include audio support.

FFmpeg Only one stream supported in the RTP muxer. 2017-02-07 ffmpeg rtp ...

For SSM the URL is of the type rtp:// [email protected]:10000. Notice, this URL example adresses an IPTV stream which is only available if you are connected to the Network of German Telekom under an appropriate contract. Unfortunately TVheadend binds only rtp:\\232.0.20.35:1000 of the complete URL and neglects the source node part 87.141.215.251. On odd ports numbers, there is another "stream" > of rtcp packets that gives feedback about QoS and packets being sent or > received. > > For example: > > port 8000: rtp/audio > port 8001: rtcp/audio > port 8002: rtp/video > port 8003: rtcp/video > > you can revert audio and video but rtcp packets about stream type are > always sent over the +1 ... Utility for managing video streams using ffmpeg. node-ffmpeg. FFmpeg module for Node.This library provides a set of functions and utilities to abstract commands-line usage of ffmpeg. FFmpeg is a multiplatform, open-source library to record, convert and stream video and audio files. Created in 2000, it is a powerful command-line tool that runs on Linux, Windows and Mac operating systems.

Esp8266 dimmer switchThe MMSC will send RTP streams, and the standalone application (RTP Server) will receive RTP streams.Do you think it is possible RTP Server listens on a port to receive a RTP stream other than rely on SDP file? Another question,have you had the experience to compile ffmpeg on Solaris ffmpeg: ffdec_h264: FFmpeg H.264 / AVC / MPEG-4 AVC / MPEG-4 part 10 decoder ffmpeg: ffmux_ipod: FFmpeg iPod H.264 MP4 format muxer rtp: rtph264depay: RTP H264 depayloader rtp: rtph264pay: RTP H264 payloader x264: x264enc: x264enc videoparsersbad: h264parse: H.264 parser If FFmpeg is missing you can easily install it right from the same terminal by typing: sudo apt-get install ffmpeg. if you're using Ubuntu, or: yaourt ffmpeg. if you are an Arch user. Whatever your distribution of choice, you will most certainly find ffmpeg available in your package manager. The addition of an extra repository may be necessary. True, it's typically used with RTP to do the "real time streaming" part, but then this disadvantage is more appropriate with RTP. By the way, RTSP CAN be used to download files using http or ftp. You just ask the server for a describe, and get an SDP file back, which tells the location of a http or ftp server (I'm quite sure SDP allows this). Anyway, observations 3 and 4 were interesting, as they seemed to indicate that the problem was a failure of rtsp-ffmpeg to properly close down the stream or something. And indeed, that is what I ... ffmpeg as stream monitoring tool I'm looking to use ffmpeg to bring in an HLS stream as the input and I want to have 3 log outputs to a single log file that I can then alert/act from. The 3 outputs I want are silencedetect, blackdetect, and volumedetect (to monitor the dB levels). we are looking for a developer who develops for us ffmpeg player for android 2.2/2.3/.4. The player should be able to open Transport - HTTP - RTP/RTSP/RTMP - MMS - HTTP Live Streaming . The container consists of h264 video codec and aac audio codec. It should be kept simple and very easy, so we base on which it can be integrated into our app. Only one stream supported in the RTP muxer というエラー。 映像か音声のどちらか片方だけにすると、このエラーは起こらない。 RTPとしては映像と音声を一つのポートで送ることができるが、ffmpegではそれをサポートしていない様子。 If FFmpeg is missing you can easily install it right from the same terminal by typing: sudo apt-get install ffmpeg. if you're using Ubuntu, or: yaourt ffmpeg. if you are an Arch user. Whatever your distribution of choice, you will most certainly find ffmpeg available in your package manager. The addition of an extra repository may be necessary.

Tyt th 9000d reset


Umist face database

2010 chrysler sebring dash removal

  1. Texas lottery scratch off dollar5Marlin glenfield model 60 tactical stockEonon 10.1 android 10

    Eureka math grade 7 module 4 answer key hubspot

  2. Eb1c petition letter sampleSpring boot @kafkalistener avroArk extinction meteor shower locations

    Ppsspp pes 2021 iso ps4 camera

    Yamaha ns 5000

  3. Simplified gas flow equationConan exiles scourge steelNational pork board speakers bureau

    $ ffmpeg -i input.mp4 -s 1280x720 -c:a copy output.mp4. The above command will set the resolution of the given video file to 1280x720. Similarly, to convert the above file to 640x480 size, run: $ ffmpeg -i input.mp4 -filter:v scale=640:480 -c:a copy output.mp4. Or, $ ffmpeg -i input.mp4 -s 640x480 -c:a copy output.mp4

  4. Sugar to reduce nitrogen in soilEvent glitch ps4Aimsweb math computation grade 6

    2004 f150 shifter cable replacement

    T2 case problem review

  5. Imovie website2005 dodge ram shifter cableWavelength equation

    Outlook tesla
    What does foreign service mean on dd214
    Gpu stuck at 139 mhz
    Vindicator police blotter
    Minecraft bedrock edition seed map viewer

  6. Letter to my little sister on her birthdayXcode tutorial pdfTop web games

    Serverless api

  7. Spark jdbc sslWilmington police scanner frequencyClunk when turning left and right

    Vintage font

  8. Blackpink sasaeng rumorsEdd forgot security questions and answersIonic 4 sample app

    Late growth spurt stories

    Prentice hall world history the modern era online textbook pdf

  9. Calibrate tcl roku tvPorsche cayman sound systemMobile mp4moviez

    This example stream local media files to streaming media server (Use RTMP as example). It's the simplest FFmpeg streamer. The solution contains 2 projects: simplest_ffmpeg_streamer: stream local media files to streaming media server. simplest_ffmpeg_receiver: save streaming media to a file. Expand . Seeking full stack developer for long term job include : comply my site with FB and VK and host my existing game there + display my site inside mobile app and add push notification and make it more responsive. this is the first task second task is to make a page that allow users to stream on several platform in same time and display ads for me like videos and text and add it to google chrome ... ffmpeg -re -i input.mpg -vcodec copy -an -f rtp rtp://224.10.20.30:20000 -vn -acodec copy -f rtp rtp://224.10.20.30:30000 -newaudio Analysing this command line: "-re" is needed to stream the audio and the video at the correct rate (instead of streaming as fast as possible) "input.mpg" is the input file, to be streamed Now that FFmpeg is sending RTP, we can start a receiver application that gets the stream and shows the video, by using any media player that is compatible with SDP files. This proves that our RTP streaming is working fine. We'll show how you can open the RTP stream with three tools: FFmpeg, GStreamer, and VLC.11,140 ffmpeg udp rtp jobs found, ... Store and stream videos from an unlimited number of secondary servers, load balancing your website and optimizing traffic ... ffmpeg -protocol_whitelist file,udp,rtp -i ffsdp.sdp -c:a aac -b:a 128k -ac 2 -f hls -hls_time 4 -hls_playlist_type event stream.m3u8 It works , but randomly (after stopping, and starting again for example), FFmpeg decides to create a .ts file/segment every 0.02 seconds (ridiculously fast).GuiónEstoy tratando de transmitir un video entre 2 hosts usando RTP. Previamente resolví este problema usando VLC usando los siguientes 2 comandosLado del servidorcvlc video_file.mp4 --sout "#transcode{vcodec=h264, acodec=mpga, ab=128, channels=2, ... FFmpeg Only one stream supported in the RTP muxer. 2017-02-07 ffmpeg rtp ... Jul 11, 2011 · I think that, for an Internet Streaming professional, this has become one of the most important feature of FFmpeg. Before, if you wanted to acquire streams or push streams to a server in live mode you needed to use the RTP/RTSP protocol, but it is too complex and the implementation not really stable.

    • Spitz planetariumKoikatsu overlay texturesFlappy bird apk mod

      [mjpeg @ 0x3718b30] bitrate tolerance 4000000 too small for bitrate 200000, overriding Output #0, image2, to 'img%03d.jpg': Metadata: title : RTSP/RTP stream from anjvision ipcamera encoder : Lavf58.38.101 Stream #0:0: Video: mjpeg, yuvj420p(pc), 1280x720, q=2-31, 200 kb/s, 0.02 fps, 0.02 tbn, 0.02 tbc Metadata: encoder : Lavc58.71.100 mjpeg ... 使用ffmpeg封装ts流的问题各位好,我的问题是这样的。我有一个 h264编码的ES流视频文件,我想用ffmpeg来把视频文件封装成TS流。

  10. Fire tv app not responding1998 rav4 obd locationCrime patrol 2019 september 26

    Outlook encrypt button greyed out

    Who are the michigan electors

Lq4 500whp build

This example stream local media files to streaming media server (Use RTMP as example). It's the simplest FFmpeg streamer. The solution contains 2 projects: simplest_ffmpeg_streamer: stream local media files to streaming media server. simplest_ffmpeg_receiver: save streaming media to a file. Expand .